[Login] or [Signup]
Login
Username:
Password:
[Signup]
[Recover Account]


Poll


You must be logged in to view polls



Torrent Details For "18+.An.Affair.to.Die.For.2019.HDRip.AC3.X264.LLG"

18+.An.Affair.to.Die.For.2019.HDRip.AC3.X264.LLG

Download this torrent | Magnet Download
Health:
Seeds: 0
Leechers: 0
Completed:
Last Checked: 11-02-2019 13:02:41
External Torrent
Update Stats
Download Magnet


Poster
No poster


iMDB
Title: An Affair to Die For
Year: 2019
Runtime: 82 minutes
Votes: 182
Rating: 4.7/10
Language: English
Director: Víctor García
Writing By: Elliott San,
Produced By: Franco Bevione,Josef Brandmaier,Fabio Massimo Cacciatori,Martha Capello,Andrea Cucchi,Miguel Angel Faura,Birgit Rothoerl,Oliver Stoltz,Isaac Torrás,Yanko Ushatov,
Music: Luca Balboni
Cast:
Claire Forlani as Holly
Jake Abel as Everett
Titus Welliver as Russell
Nathan Cooper as Dave
Melina Matthews as Lydia
Trailers:
An Affair to Die For
An Affair To Die For Official Trailer


Watch-Free-HD     Download

Details
Name:18+.An.Affair.to.Die.For.2019.HDRip.AC3.X264.LLG
Description:

Quote:



******************************Thumbnail:**********************

 

******************************Screenshots:********************

 Screenshot 1

 Screenshot 2

 Screenshot 3

 Screenshot 4

 Screenshot 5

 Screenshot 6

 Screenshot 7

 Screenshot 8

 Screenshot 9

 Screenshot 0


******************************************************

18+.An.Affair.to.Die.For.2019.HDRip.AC3.X264.LLG.mp4
Format                                   : MPEG-4
Format profile                           : Base Media
Codec ID                                 : isom (isom/iso2/avc1/mp41)
File size                                : 837 MiB
Duration                                 : 1 h 22 min
Overall bit rate mode                    : Variable
Overall bit rate                         : 1 414 kb/s


Video
ID                                       : 1
Format                                   : AVC
Format/Info                              : Advanced Video Codec
Format profile                           : [email protected]
Format settings                          : CABAC / 1 Ref Frames
Format settings, CABAC                   : Yes
Format settings, RefFrames               : 1 frame
Codec ID                                 : avc1
Codec ID/Info                            : Advanced Video Coding
Duration                                 : 1 h 22 min
Bit rate mode                            : Variable
Bit rate                                 : 1 027 kb/s
Maximum bit rate                         : 3 600 kb/s
Width                                    : 720 pixels
Height                                   : 304 pixels
Display aspect ratio                     : 2.35:1
Frame rate mode                          : Constant
Frame rate                               : 23.976 (23976/1000) FPS
Color space                              : YUV
Chroma subsampling                       : 4:2:0
Bit depth                                : 8 bits
Scan type                                : Progressive
Bits/(Pixel*Frame)                       : 0.196
Stream size                              : 607 MiB (73%)


Audio
ID                                       : 2
Format                                   : AC-3
Format/Info                              : Audio Coding 3
Commercial name                          : Dolby Digital
Codec ID                                 : ac-3
Duration                                 : 1 h 22 min
Bit rate mode                            : Constant
Bit rate                                 : 384 kb/s
Channel(s)                               : 6 channels
Channel layout                           : L R C LFE Ls Rs
Sampling rate                            : 48.0 kHz
Frame rate                               : 31.250 FPS (1536 SPF)
Bit depth                                : 16 bits
Compression mode                         : Lossy
Stream size                              : 227 MiB (27%)
Language                                 : English
Service kind                             : Complete Main
Default                                  : Yes
Alternate group                          : 1


********************************************************


Category:Movies > HDRips
Lang:English  English
Total Size:854.71 MB
Info Hash:2325578d4c222075f6b0ef0afed64211b51c2425
Added By:LifeLongg
Date Added:11-02-2019 13:02:41
Views:254
Hits:19

Download Torrent

Ratings:Not Yet Rated (Log in to rate it)


Tracker:
udp://tracker.openbittorrent.com:80/announce


File List: 


Comments

No comments still posted

Powered by 10 Hamsters v2-svn -|- Page Generated In 0.250771 secs.
-|- RSS FEED
Theme By: Nikkbu